Beta 1.0 中国家用电器研究院旗下新媒体 | 家电数码互动评测第一平台
查看: 414|回复: 11

[4K电影] [4K电影]疯狂的麦克斯:狂暴之路 Mad Max: Fury Road 2015[2160P/MKV/12.2GB]

  [复制链接]

klpoij89

  • TA的每日心情
    开心
    2016-12-19 00:28
  • 签到天数: 65 天

    [LV.6]常住居民II




    [4K电影]疯狂的麦克斯:狂暴之路 Mad Max: Fury Road 2015[2160P/MKV/12.2GB]   [复制链接]
    414 11
    打印 上一主题 下一主题
    2016-5-3 18:00:05
    [4K电影]疯狂的麦克斯:狂暴之路 Mad Max: Fury Road 2015[2160P/MKV/12.2GB]

    译  名:疯狂的麦克斯:狂暴之路 / 末日先鋒:戰甲飛車(港) / 瘋狂麥斯:憤怒道(台)

    片  名:Mad Max: Fury Road

    年  代:2015

    国  家:美国

    类  别:动作 / 科幻 / 冒险

    语  言:英语

    音        频:AC-3 5.1

    视频尺寸:3840x2160

    文件大小:12.2GiB

    上映日期:2015-05-15(美国)(**) / 2015-05-14(澳大利亚)(香港)

    IMDB评分:8.1/10 from 503,405 users

    IMDB链接:http://www.imdb.com/title/tt1392190/

    片  长:120分钟

    导  演:乔治·米勒 George Miller

    主  演: 汤姆·哈迪 Tom Hardy
                       (饰演 麦克斯 Max Rockatansky)

                       查理兹·塞隆 Charlize Theron
                       (饰演 费罗莎指挥官 Imperator Furiosa)

                       尼古拉斯·霍尔特 Nicholas Hoult
                       (饰演 纳克斯 Nux)

                       休·基斯-拜伦 Hugh Keays-Byrne
                       (饰演 不死老乔 Immortan Joe)

                       乔什·赫尔曼 Josh Helman
                       (饰演 Slit)

                       内森·琼斯 Nathan Jones
                       (饰演 Rictus Erectus)

                       佐伊·克罗维兹 Zoë Kravitz
                       (饰演 Toast the Knowing)

                       罗茜·汉丁顿-惠特莉 Rosie Huntington-Whiteley
                       (饰演 The Splendid Angharad)

                        丽莉·克亚芙 Riley Keough
                        (饰演 Capable)

                         阿比·丽 Abbey Lee
                         (饰演 The Dag)

                         考特尼·伊顿 Courtney Eaton
                         (饰演 Cheedo the Fragile)

                         约翰·霍华德 John Howard
                         (饰演 The People Eater)

                         理查德·卡特 Richard Carter
                         (饰演 The Bullet Farmer)

                         安格斯山 Angus Sampson
                         (饰演 The Organic Mechanic)

    简介:

           未来世界,水资源短缺引发了连绵的战争。人们相互厮杀,争夺有限的资源,地球变成了血腥十足的杀戮死战场。面容恐怖的不死乔在戈壁山谷建立了难以撼动的强大武装王国,他手下的战郎驾驶装备尖端武器的战车四下抢掠,杀伐无度,甚至将自己的孩子打造成战争机器。在最近一次行动中,不死乔的得力战将弗瑞奥萨(查理兹·塞隆 Charlize Theron 饰)带着生育者们叛逃,这令不死乔恼羞成怒,发誓要追回生育者。经历了激烈的追逐战和摧毁力极强的沙尘暴,弗瑞奥萨和作为血主的麦克斯(汤姆·哈迪 Tom Hardy 饰)被迫上路,而身后不仅有不死乔的追兵,还有汽油镇、子弹农场的重兵追逐。
      末世战争,全面爆发……

    General
    Unique ID : 253714177846868654085536838134277902847 (0xBEDF92C00F189E0FAC5D0F3C7C891FF)
    Complete name : Mad Max Fury Road (2015) UHD 4K Upscaled x264 AC3 Soup.mkv
    Format : Matroska
    Format version : Version 2
    File size : 12.2 GiB
    Duration : 2h 0mn
    Overall bit rate : 14.6 Mbps
    Movie name : Mad Max Fury Road (2015) UHD 4K Upscaled x264 AC3 Soup
    Encoded date : UTC 2016-04-11 20:25:10
    Writing application : DVDFab 9.2.2.8
    Writing library : libebml v0.7.8 + libmatroska v0.8.1

    Video
    ID : 1
    Format : AVC
    Format/Info : Advanced Video Codec
    Format profile : High@L5.1
    Format settings, CABAC : Yes
    Format settings, ReFrames : 1 frames
    Codec ID : V_MPEG4/ISO/AVC
    Duration : 2h 0mn
    Bit rate : 13.9 Mbps
    Width : 3840 pixels
    Height : 2160 pixels
    Display aspect ratio : 16:9
    Frame rate mode : Constant
    Frame rate : 23.976 fps (24000/1001)fps
    Color space : YUV
    Chroma subsampling : 4:2:0
    Bit depth : 8 bits
    Scan type : Progressive
    Bits/(Pixel*Frame) : 0.070
    Stream size : 11.5 GiB (94%)
    Writing library : x264 core 142
    Encoding settings : cabac=1 / ref=1 / deblock=1:0:0 / analyse=0x1:0x111 / me=umh / subme=6 / psy=0 /  mixed_ref=0 / me_range=12 / chroma_me=1 / trellis=0 / 8x8dct=0 / cqm=0 / deadzone=21,11 / fast_pskip=1 / chroma_qp_offset=0 / threads=4 / lookahead_threads=1
    Default : Yes
    Forced : No
    Color range : Limited
    Color primaries : BT.709
    Transfer characteristics : BT.709
    Matrix coefficients : BT.709

    Audio
    ID : 2
    Format : AC-3
    Format/Info : Audio Coding 3
    Mode extension : CM (complete main)
    Format settings, Endianness : Big
    Codec ID : A_AC3
    Duration : 2h 0mn
    Bit rate mode : Constant  
    Bit rate : 640 Kbps  
    Channel(s) : 6 channels
    Channel positions : Front: L C R, Side: L R, LFE
    Sampling rate : 48.0 KHz
    Frame rate : 31.250 fps (1536 spf)
    Compression mode : Lossy
    Stream size : 551 MiB (4%)
    Language : English
    Default : Yes
    Forced : No


    建议使用极速迅雷来高速下载!最高峰值12MB

    4K版繁体/简体中文字幕
    游客,如果您要查看本帖隐藏内容请回复



    BT种子文件下载
    游客,如果您要查看本帖隐藏内容请回复

    +10



    2017-1-23 02:29:27
    [4K高清]舞动上海S01E01:瑜伽篇[2160P/MP4/双码率] ...



    2016-12-11 17:33:09
    感谢分享, 有你更精彩



    2016-11-25 15:45:10
    这是要怎么下载啊



    2016-10-9 00:28:43
    哦咯



    2016-11-22 10:42:57
    是的786453512



    2016-11-24 22:32:34
    谢谢分享



    2016-11-24 22:32:45
    谢谢分享



    2016-11-25 15:43:22
    MAIKES



    2016-12-15 12:17:37
    我就看看不说话
    12下一页
    本版积分规则
    您需要登录后才可以回帖 登录 | 注册

    关闭

    站长推荐上一条 /2 下一条

    返回顶部 返回列表