Beta 1.0 中国家用电器研究院旗下新媒体 | 家电数码互动评测第一平台
查看: 1262|回复: 16

[4K电影] [4K电影]银河护卫队 Guardians of the Galaxy 2014[2160P/MKV/13.7GB]

  [复制链接]

klpoij89

  • TA的每日心情
    开心
    2016-12-19 00:28
  • 签到天数: 65 天

    [LV.6]常住居民II




    [4K电影]银河护卫队 Guardians of the Galaxy 2014[2160P/MKV/13.7GB]   [复制链接]
    1262 16
    打印 上一主题 下一主题
    2016-5-4 18:55:56
    [4K电影]银河护卫队 Guardians of the Galaxy 2014[2160P/MKV/13.7GB]
    Guardians-of-the-Galaxy-2306269--o--.jpg
    译  名:银河护卫队 / 銀河守護隊(港) / 星際異攻隊(台)

    片  名:Guardians of the Galaxy

    年  代:2014

    国  家:美国

    类  别:喜剧 / 动作 / 科幻 / 冒险

    语  言:英语

    音       频:AC-3 5.1

    视频尺寸:3840 x 2160

    文件大小:13.7 GiB

    上映日期:2014-10-10(中国大陆) / 2014-08-01(美国)

    IMDb评分:8.1/10 from 643,845 users

    IMDb链接:http://www.imdb.com/title/tt2015381/

    片  长:120分钟

    导  演:詹姆斯·古恩 James Gunn

    编       剧:詹姆斯·古恩 James Gunn

                      尼科尔·帕尔曼 Nicole Perlman

                      丹·阿布内特 Dan Abnett

                      安迪·兰宁 Andy Lanning

    主  演:克里斯·普拉特 Chris Pratt
                       (饰演 星爵 / 彼得·奎尔 Peter Quill / Star-Lord)

                       佐伊·索尔达娜 Zoe Saldana
                       (饰演 卡魔拉 Gamora)

                       布莱德利·库珀 Bradley Cooper
                       (火箭浣熊 (配音) Rocket Raccoon (voice))

                       范·迪塞尔 Vin Diesel
                       (树精格鲁特 (配音) Groot (voice))

                       戴夫·巴蒂斯塔 Dave Bautista
                       (饰演 毁灭者德拉克斯 Drax the Destroyer)

                       李·佩斯 Lee Pace
                       (饰演 指控者罗南 Ronan the Accuser)

                       迈克尔·鲁克 Michael Rooker
                       (饰演 勇度 Yondu)

                       凯伦·吉兰 Karen Gillan
                       (饰演 星云涅布拉 Nebula)

                       杰曼·翰苏 Djimon Hounsou
                       (饰演 科拉斯 Korath)

                       本尼西奥·德尔·托罗 Benicio Del Toro
                       (饰演 收藏家塔纳利尔·提冯)

                       约翰·C·赖利 John C. Reilly
                       (饰演 戴伊 Rhomann Dey)

                       格伦·克洛斯 Glenn Close
                       (饰演 诺瓦军团指挥官 伊拉尼·雷尔)

                       瓦耶特·奥莱夫 Wyatt Oleff
                       (饰演 童年奎尔 Young Quill)

                       劳拉·哈德克 Laura Haddock
                       (饰演 彼得·奎尔的母亲 Meredith Quill)

                       奥菲利亚·拉维邦德 Ophelia Lovibond
                       (饰演 卡瑞娜 Carina)

    简介:

           彼得·奎尔(克里斯·帕拉特 Chris Pratt 饰)是一名从小被劫持到外太空的地球人,在义父勇度(迈克尔·鲁克 Michael Rooker 饰)的培养下成了一个终极混混,自称“星爵”。一次行动中他偷了一块神秘球体,便成为了赏金猎人火箭浣熊(布莱德利·库珀 B radl ey Cooper 配音)、树人格鲁特(范·迪塞尔 Vin Diesel 配音)的绑架目标,而神秘的卡魔拉(佐伊·索尔达娜 Zoe Saldana 饰)也对神秘球体势在必得。经过笑料百出的坎坷遭遇,星爵被迫和这三人,以及复仇心切的“毁灭者”德拉克斯(戴夫·巴蒂斯塔 Dave Batista 饰)组成小分队逃避“指控者”罗南(李·佩斯 Lee Pace 饰)的追杀。然而这个神秘球体拥有无穷的力量,小分队必须团结一致对付罗南,才有可能解救整个银河系,银河护卫队由此诞生。

    General
    Unique ID : 229223507927015262442772732394348932848 (0xAC72D77F613E479CBEE1BB20E102EEF0)
    Complete name : Guardians of the Galaxy(2014)UHD 4K Upscaled x264 AC3 Soup.mkv
    Format : Matroska
    Format version : Version 2
    File size : 13.7 GiB
    Duration : 2h 0mn
    Overall bit rate : 16.3 Mbps
    Movie name : Guardians of the Galaxy(2014)UHD 4K Upscaled x264 AC3 Soup
    Encoded date : UTC 2016-04-19 04:11:42
    Writing application : DVDFab 9.2.2.8
    Writing library : libebml v0.7.8 + libmatroska v0.8.1

    Video
    ID : 1
    Format : AVC
    Format/Info : Advanced Video Codec
    Format profile : High@L5.1
    Format settings, CABAC : Yes
    Format settings, ReFrames : 1 frames
    Codec ID : V_MPEG4/ISO/AVC
    Duration : 2h 0mn
    Bit rate : 15.7 Mbps
    Width : 3840 pixels
    Height : 2160 pixels
    Display aspect ratio : 16:9
    Frame rate mode : Constant
    Frame rate : 23.976 fps (24000/1001) fps
    Color space : YUV
    Chroma subsampling : 4:2:0
    Bit depth : 8 bits
    Scan type : Progressive
    Bits/(Pixel*Frame) : 0.079
    Stream size : 13.0 GiB (94%)
    Writing library : x264 core 142
    Encoding settings : cabac=1 / ref=1 / deblock=1:0:0 / analyse=0x1:0x111 / me=umh / subme=6 / psy=0 /  mixed_ref=0 / me_range=12 / chroma_me=1 / trellis=0 / 8x8dct=0 / cqm=0 / deadzone=21,11 / fast_pskip=1 / chroma_qp_offset=0 / threads=4 / lookahead_threads=1
    Default : Yes
    Forced : No
    Color range : Limited
    Color primaries : BT.709
    Transfer characteristics : BT.709
    Matrix coefficients : BT.709

    Audio
    ID : 2
    Format : AC-3
    Format/Info : Audio Coding 3
    Mode extension : CM (complete main)
    Format settings, Endianness : Big
    Codec ID : A_AC3
    Duration : 2h 0mn
    Bit rate mode : Constant  
    Bit rate : 640 Kbps  
    Channel(s) : 6 channels
    Channel positions : Front: L C R, Side: L R, LFE
    Sampling rate : 48.0 KHz
    Frame rate : 31.250 fps (1536 spf)
    Compression mode : Lossy
    Stream size : 553 MiB (4%)
    Language : English
    Default : Yes

    Forced : No
    Guardians of the Galaxy (2014) UHD 4K Upscaled x264 AC3 Soup.mkv_20160419_1603.520.jpg Guardians of the Galaxy (2014) UHD 4K Upscaled x264 AC3 Soup.mkv_20160419_163007.859.jpg Guardians of the Galaxy (2014) UHD 4K Upscaled x264 AC3 Soup.mkv_20160419_163201.390.jpg Guardians of the Galaxy (2014) UHD 4K Upscaled x264 AC3 Soup.mkv_20160419_163548.828.jpg Guardians of the Galaxy (2014) UHD 4K Upscaled x264 AC3 Soup.mkv_20160419_163901.453.jpg Guardians of the Galaxy (2014) UHD 4K Upscaled x264 AC3 Soup.mkv_20160419_164050.265.jpg Guardians of the Galaxy (2014) UHD 4K Upscaled x264 AC3 Soup.mkv_20160419_164433.453.jpg Guardians of the Galaxy (2014) UHD 4K Upscaled x264 AC3 Soup.mkv_20160419_164649.078.jpg Guardians of the Galaxy (2014) UHD 4K Upscaled x264 AC3 Soup.mkv_20160419_164853.687.jpg Guardians of the Galaxy (2014) UHD 4K Upscaled x264 AC3 Soup.mkv_20160419_165044.890.jpg Guardians of the Galaxy (2014) UHD 4K Upscaled x264 AC3 Soup.mkv_20160419_165240.218.jpg Guardians of the Galaxy (2014) UHD 4K Upscaled x264 AC3 Soup.mkv_20160419_165317.171.jpg
    建议使用极速迅雷来高速下载!最高峰值12MB

    4K版繁体/简体中文字幕

    游客,如果您要查看本帖隐藏内容请回复



    BT种子文件下载
    游客,如果您要查看本帖隐藏内容请回复

    +12

    最近谁赞过




    2016-11-6 18:27:10
    好漂亮啊         



    2016-10-2 22:55:45
    这个一定得看,每个人都有超级英雄梦



    2017-1-15 13:34:24
    不错~~~~~~~~~~~~~~~  太响要了




    2016-10-4 18:01:58
    完整的电影,谢谢分享!



    2016-11-2 21:11:30
    未来观看 我就要下了




    2016-11-7 22:04:31
    谢谢分享



    2016-11-17 22:05:58




    2016-11-20 21:38:29
    hiiiiiiiiiii



    2016-11-22 10:40:10
    下载视频回家看看



    2016-12-9 13:14:11
    能下吗???????????????????????????
    12下一页
    本版积分规则
    您需要登录后才可以回帖 登录 | 注册

    关闭

    站长推荐上一条 /2 下一条

    返回顶部 返回列表