Beta 1.0 中国家用电器研究院旗下新媒体 | 家电数码互动评测第一平台
查看: 416|回复: 9

[4K赛事] [4K足球赛]德甲联盟DFL-超级杯2014[2160P/TS/12.3GB]

  [复制链接]

klpoij89

  • TA的每日心情
    开心
    2016-12-19 00:28
  • 签到天数: 65 天

    [LV.6]常住居民II




    [4K足球赛]德甲联盟DFL-超级杯2014[2160P/TS/12.3GB]   [复制链接]
    416 9
    打印 上一主题 下一主题
    2016-5-23 07:25:58
    本帖最后由 klpoij89 于 2016-6-22 21:54 编辑

    [4K足球赛]德甲联盟DFL-超级杯2014[2160P/TS/12.3GB]
    (多特蒙德队VS 拜仁慕尼黑 Borussia Dortmund vs Bayern München)

    DFL Supercup.jpg
    General
    ID : 1014(0x3F6)
    Complete name : DFL.Supercup.2014.BVB.vs.FCB.ts
    Format : MPEG-TS
    File size : 12.3 GiB
    Duration : 56mn 32s
    Overall bit rate mode : Variable
    Overall bit rate : 31.2 Mbps

    Video
    ID : 255 (0xFF)
    Menu ID : 10202 (0x27DA)
    Format : HEVC
    Format/Info : High Efficiency Video Coding
    Format profile : High 10@L5.1@Main
    Codec ID : 36
    Duration : 56mn 32s
    Bit rate : 29.5 Mbps
    Width : 3840 pixels
    Height : 2160 pixels
    Display aspect ratio : 16:9
    Frame rate : 50.000 fps
    Color space : YUV
    Chroma subsampling : 4:2:0
    Bit depth : 10 bits
    Bits/(Pixel*Frame) : 0.071
    Stream size : 306 GiB

    Audio
    ID : 256 (0x100)
    Menu ID : 10202 (0x27DA)
    Format : MPEG Audio
    Format version : Version 1
    Format profile : Layer 2
    Codec ID : 3
    Duration : 56mn 32s
    Bit rate mode : Constant  
    Bit rate : 192 Kbps
    Channel(s) : 2 channels
    Sampling rate : 48.0 KHz
    Compression mode : Lossy
    Delay relative to video : -1s 280ms
    Stream size : 77.7 MiB (1%)
    Language : German

    DFL.Supercup.2014.BVB.vs.FCB.ts_20160522_212153.316.jpg DFL.Supercup.2014.BVB.vs.FCB.ts_20160522_212309.164.jpg DFL.Supercup.2014.BVB.vs.FCB.ts_20160522_212359.924.jpg DFL.Supercup.2014.BVB.vs.FCB.ts_20160522_213101.706.jpg DFL.Supercup.2014.BVB.vs.FCB.ts_20160522_213112.907.jpg DFL.Supercup.2014.BVB.vs.FCB.ts_20160522_213215.002.jpg DFL.Supercup.2014.BVB.vs.FCB.ts_20160522_213242.418.jpg DFL.Supercup.2014.BVB.vs.FCB.ts_20160522_213522.289.jpg DFL.Supercup.2014.BVB.vs.FCB.ts_20160522_213716.385.jpg DFL.Supercup.2014.BVB.vs.FCB.ts_20160522_214529.879.jpg DFL.Supercup.2014.BVB.vs.FCB.ts_20160522_214540.103.jpg DFL.Supercup.2014.BVB.vs.FCB.ts_20160522_214553.967.jpg DFL.Supercup.2014.BVB.vs.FCB.ts_20160522_214620.839.jpg DFL.Supercup.2014.BVB.vs.FCB.ts_20160522_215048.655.jpg DFL.Supercup.2014.BVB.vs.FCB.ts_20160522_215236.486.jpg DFL.Supercup.2014.BVB.vs.FCB.ts_20160522_215313.758.jpg DFL.Supercup.2014.BVB.vs.FCB.ts_20160522_215700.117.jpg DFL.Supercup.2014.BVB.vs.FCB.ts_20160522_215755.245.jpg DFL.Supercup.2014.BVB.vs.FCB.ts_20160522_215827.845.jpg DFL.Supercup.2014.BVB.vs.FCB.ts_20160522_215930.044.jpg DFL.Supercup.2014.BVB.vs.FCB.ts_20160522_220246.252.jpg DFL.Supercup.2014.BVB.vs.FCB.ts_20160522_222005.000.jpg
    建议使用极速迅雷来高速下载!最高峰值12MB
    播放器: Potplaye/MPC-HC

    BT种子文件百度云盘

    游客,如果您要查看本帖隐藏内容请回复

    +10



    2016-5-24 11:44:17
    赞一个!!!



    2016-10-1 12:44:03
    53999987



    2016-11-1 21:56:44
    宝贵的球赛资源



    2016-11-16 10:18:13
    good



    2016-11-16 15:47:41
    真的是草页可见啊



    2016-11-18 16:13:29
    ABCDEFG还有超级的、、、



    2016-11-18 16:13:35
    哈哈哈哈



    2016-11-20 21:39:53
    hiiiiiiiiiiii



    2017-3-25 17:41:12
    哈哈哈哈
    本版积分规则
    您需要登录后才可以回帖 登录 | 注册

    关闭

    站长推荐上一条 /2 下一条

    返回顶部 返回列表