Beta 1.0 中国家用电器研究院旗下新媒体 | 家电数码互动评测第一平台
查看: 1942|回复: 66

[4K演示] 2016 LG OLED TV 4K 演示片 - 4K画质影像展示 [2160P/MP4/576MB]

  [复制链接]

klpoij89

  • TA的每日心情
    开心
    2016-12-19 00:28
  • 签到天数: 65 天

    [LV.6]常住居民II




    2016 LG OLED TV 4K 演示片 - 4K画质影像展示 [2160P/MP4/576MB]   [复制链接]
    1942 66
    打印 上一主题 下一主题
    2016-9-27 12:59:40
    2016 LG OLED TV 4K 演示片 - 4K画质影像展示 [2160P/MP4/576MB]

    2016 LG OLED TV 4K 演示片 - 4K画质影像展示 [2160P/MP4/576MB]

    2016 LG OLED TV 4K 演示片 - 4K画质影像展示 [2160P/MP4/576MB]

    2016 LG OLED TV 4K 演示片 - 4K画质影像展示 [2160P/MP4/576MB]

    2016 LG OLED TV 4K 演示片 - 4K画质影像展示 [2160P/MP4/576MB]

    2016 LG OLED TV 4K 演示片 - 4K画质影像展示 [2160P/MP4/576MB]

    2016 LG OLED TV 4K 演示片 - 4K画质影像展示 [2160P/MP4/576MB]

    2016 LG OLED TV 4K 演示片 - 4K画质影像展示 [2160P/MP4/576MB]

    2016 LG OLED TV 4K 演示片 - 4K画质影像展示 [2160P/MP4/576MB]

    2016 LG OLED TV 4K 演示片 - 4K画质影像展示 [2160P/MP4/576MB]

    2016 LG OLED TV 4K 演示片 - 4K画质影像展示 [2160P/MP4/576MB]

    2016 LG OLED TV 4K 演示片 - 4K画质影像展示 [2160P/MP4/576MB]

    2016 LG OLED TV 4K 演示片 - 4K画质影像展示 [2160P/MP4/576MB]

    2016 LG OLED TV 4K 演示片 - 4K画质影像展示 [2160P/MP4/576MB]

    2016 LG OLED TV 4K 演示片 - 4K画质影像展示 [2160P/MP4/576MB]

    2016 LG OLED TV 4K 演示片 - 4K画质影像展示 [2160P/MP4/576MB]

    2016 LG OLED TV 4K 演示片 - 4K画质影像展示 [2160P/MP4/576MB]

    2016 LG OLED TV 4K 演示片 - 4K画质影像展示 [2160P/MP4/576MB]

    2016 LG OLED TV 4K 演示片 - 4K画质影像展示 [2160P/MP4/576MB]

    2016 LG OLED TV 4K 演示片 - 4K画质影像展示 [2160P/MP4/576MB]

    2016 LG OLED TV 4K 演示片 - 4K画质影像展示 [2160P/MP4/576MB]

    2016 LG OLED TV 4K 演示片 - 4K画质影像展示 [2160P/MP4/576MB]

    2016 LG OLED TV 4K 演示片 - 4K画质影像展示 [2160P/MP4/576MB]

    2016 LG OLED TV 4K 演示片 - 4K画质影像展示 [2160P/MP4/576MB]

    2016 LG OLED TV 4K 演示片 - 4K画质影像展示 [2160P/MP4/576MB]

    2016 LG OLED TV 4K 演示片 - 4K画质影像展示 [2160P/MP4/576MB]

    2016 LG OLED TV 4K 演示片 - 4K画质影像展示 [2160P/MP4/576MB]

    General
    Complete name : LG_OLED TV_
    4K_DEMO_4K 화질데모 영상_2016.mp4
    Format : MPEG-4
    Format version : Base Media / Version 2
    Codec ID : mp42 (mp42/mp41/isom/avc1)
    File size : 576 MiB
    Duration : 4 min 53 s
    Overall bit rate mode : Variable
    Overall bit rate : 16.4 Mbps
    Encoded date : UTC 2016-09-12 23:17:34
    Tagged date : UTC 2016-09-12 23:17:34

    Video
    ID : 1
    Format : AVC
    Format/Info : Advanced Video Codec
    Format profile : High@L5.2
    Format settings, CABAC : Yes
    Format settings, ReFrames : 5 frames
    Codec ID : avc1
    Codec ID/lnfo : Advanced Video Coding
    Duration : 4 min 53 s
    Bit rate : 16.2 Mbps
    Width : 3840 pixels
    Height : 2160 pixels
    Display aspect ratio : 16:9
    Frame rate mode : Constant
    Frame rate : 29.970 (30000/1001) FPS
    Color space : YUV
    Chroma subsampling : 4:2:0
    Bit depth : 8 bits
    Scan type : Progressive
    Bits/(Pixel*Frame) : 0.065
    Stream size : 567 MiB (98%)
    Writing library : x264 core 148 r10 3f5ed56
    Encoding settings : cabac=1 / ref=5 / deblock=1:0:0 / analyse=0x3:0x113 / me=umh / subme=8 / psy=1 /  psy_rd=1.00:0.00 / mixed_ref=1 / me_range=16 / chroma_me=1 / trellis=1 / 8x8dct=1 / cqm=0 / deadzone=21,11 / fast_pskip=1 / chroma_qp_offset=-2 / threads=67 /
    Encoded date : UTC 2016-09-12 23:17:34
    Tagged date : UTC 2016-09-12 23:17:34
    Color range : Limited
    Color primaries : BT.709
    Transfer characteristics : BT.709
    Matrix coefficients : BT.709

    Audio
    ID : 2
    Format : AAC
    Format/Info : Advanced Audio Codec
    Mode extension : LC
    Codec ID : 40
    Duration : 4 min 53 s
    Bit rate mode : Variable
    Bit rate : 256 Kbps
    Channel(s) : 2 channels
    Channel positions : Front: L  R
    Sampling rate : 48.0 KHz
    Frame rate : 46.875 FPS (1024 spf)
    Compression mode : Lossy
    Stream size : 8.97 MiB (2%)
    Encoded date : UTC 2016-09-12 23:17:34
    Tagged date : UTC 2016-09-12 23:17:34

    建议在大屏幕电视上观看才能体验最佳效果

    MP4百度云盘
    游客,如果您要查看本帖隐藏内容请回复
    +10



    2016-11-6 18:21:25
    好漂亮啊         



    2016-9-27 14:25:05
    :loveliness::loveliness::loveliness:



    2016-9-27 14:00:19
    :loveliness::loveliness::loveliness:



    2016-9-27 14:04:45
    表示支持支持



    2016-9-27 14:08:40



    2016-9-27 14:12:50
    看看好不好。。。



    2016-9-27 14:16:59
    DDDDDDD



    2016-9-27 14:21:16
    楼主给你82分,剩下的以666的形式给



    2016-9-27 14:29:36
    看看,谢谢。



    2016-9-27 14:33:29
    快快快看看支持
    本版积分规则
    您需要登录后才可以回帖 登录 | 注册

    关闭

    站长推荐上一条 /2 下一条

    返回顶部 返回列表