Beta 1.0 中国家用电器研究院旗下新媒体 | 家电数码互动评测第一平台
查看: 1526|回复: 63

[4K演示] [三星UHD演示片]环游世界(高码率版)[2160P/MP4/1.93GB]

  [复制链接]

klpoij89

  • TA的每日心情
    开心
    2016-12-19 00:28
  • 签到天数: 65 天

    [LV.6]常住居民II




    [三星UHD演示片]环游世界(高码率版)[2160P/MP4/1.93GB]   [复制链接]
    1526 63
    打印 上一主题 下一主题
    2016-9-30 01:26:27
    [三星UHD演示片]环游世界(高码率版)[2160P/MP4/1.93GB]

    [三星UHD演示片]环游世界(高码率版)[2160P/MP4/1.93GB]

    [三星UHD演示片]环游世界(高码率版)[2160P/MP4/1.93GB]

    [三星UHD演示片]环游世界(高码率版)[2160P/MP4/1.93GB]

    [三星UHD演示片]环游世界(高码率版)[2160P/MP4/1.93GB]

    [三星UHD演示片]环游世界(高码率版)[2160P/MP4/1.93GB]

    [三星UHD演示片]环游世界(高码率版)[2160P/MP4/1.93GB]

    [三星UHD演示片]环游世界(高码率版)[2160P/MP4/1.93GB]

    [三星UHD演示片]环游世界(高码率版)[2160P/MP4/1.93GB]

    [三星UHD演示片]环游世界(高码率版)[2160P/MP4/1.93GB]

    [三星UHD演示片]环游世界(高码率版)[2160P/MP4/1.93GB]

    [三星UHD演示片]环游世界(高码率版)[2160P/MP4/1.93GB]

    [三星UHD演示片]环游世界(高码率版)[2160P/MP4/1.93GB]

    [三星UHD演示片]环游世界(高码率版)[2160P/MP4/1.93GB]

    [三星UHD演示片]环游世界(高码率版)[2160P/MP4/1.93GB]

    [三星UHD演示片]环游世界(高码率版)[2160P/MP4/1.93GB]

    [三星UHD演示片]环游世界(高码率版)[2160P/MP4/1.93GB]

    [三星UHD演示片]环游世界(高码率版)[2160P/MP4/1.93GB]

    [三星UHD演示片]环游世界(高码率版)[2160P/MP4/1.93GB]

    [三星UHD演示片]环游世界(高码率版)[2160P/MP4/1.93GB]

    [三星UHD演示片]环游世界(高码率版)[2160P/MP4/1.93GB]

    [三星UHD演示片]环游世界(高码率版)[2160P/MP4/1.93GB]

    [三星UHD演示片]环游世界(高码率版)[2160P/MP4/1.93GB]

    [三星UHD演示片]环游世界(高码率版)[2160P/MP4/1.93GB]

    [三星UHD演示片]环游世界(高码率版)[2160P/MP4/1.93GB]

    General
    Complete name : Samsung.UHDTV_Around.the.world.mp4
    Format : MPEG-4
    Format profile : Base Media
    Codec ID : isom (isom/iso2/avc1/mp41)
    File size : 1.93 GiB
    Duration : 5 min 39 s
    Overall bit rate : 48.8 Mbps
    Writing application : Lavf55.48.101

    Video
    ID : 1
    Format : AVC
    Format/Info : Advanced Video Codec
    Format profile : High@L5.1
    Format settings, CABAC : Yes
    Format settings, ReFrames : 5 frames
    Codec ID : avc1
    Codec ID/Info : Advanced Video Coding
    Duration : 5 min 39 s
    Bit rate : 48.7 Mbps
    Width : 3840 pixels
    Height : 2160 pixels
    Display aspect ratio : 16:9
    Frame rate mode : Constant
    Frame rate : 29.970 (29970/1000) FPS
    Color space : YUV
    Chroma subsampling : 4:2:0
    Bit depth : 8 bits
    Scan type : Progressive
    Bits/(Pixel*Frame) : 0.196
    Stream size :1.92 GiB (100%)
    Writing library : x264 core 142 r2431 ac76440
    Encoding settings : cabac=1 / ref=5 / deblock=1:0:0 / analyse=0x3:0x113 / me=umh / subme=8 / psy=1 /  psy_rd=1.00:0.00 / mixed_ref=1 / me_range=16 / chroma_me=1 / trellis=1 / 8x8dct=1 / cqm=0 / deadzone=21,11 / fast_pskip=1 / chroma_qp_offset=-2 / threads=18 /

    Audio
    ID : 2
    Format : AC-3
    Format/Info : Audio Coding 3
    Mode extension : CM (complete main)
    Format settings, Endianness : Big
    Codec ID : ac-3
    Duration : 5 min 39 s
    Bit rate mode : Constant
    Bit rate : 128 Kbps  
    Channel(s) : 2 channels
    Channel positions : Front: L R
    Sampling rate : 48.0 KHz
    Frame rate : 31.250 FPS (1536 spf)
    Bit depth : 16 bits
    Compression mode : Lossy
    Stream size : 5.18 MiB (0%)
    Default : Yes
    Altternate group : 1

    建议在大屏幕电视上观看才能体验最佳效果

    MP4百度云盘
    游客,如果您要查看本帖隐藏内容请回复
    +11

    最近谁赞过




    2017-1-7 13:46:48
    的大大大确认过的的撒大大大大大和那个副本宝宝VB拜拜



    2016-11-6 18:26:49
    好漂亮啊         



    2017-1-20 13:04:56
    谢谢楼主谢谢楼主谢谢楼主谢谢楼主谢谢楼主



    2016-9-30 10:17:52
    码流




    2016-9-30 10:24:43
    楼主酷酷酷哈哈哈哈哈哈哈哈哈哈哈哈



    2016-9-30 13:55:06
    v dfgbsxdcvbczx



    2016-9-30 22:59:15
    shjhdkahjdsa



    2016-10-1 16:40:11
    海洋 海洋 海洋 海洋



    2016-10-1 21:53:16
    谢谢楼主热心分享!



    2016-10-3 05:43:14
    求下载



    2016-10-3 09:02:39
    谢谢楼主热心分享!



    2016-10-4 07:56:11
    楼主好人,加油长寿
    本版积分规则
    您需要登录后才可以回帖 登录 | 注册

    关闭

    站长推荐上一条 /2 下一条

    返回顶部 返回列表