Beta 1.0 中国家用电器研究院旗下新媒体 | 家电数码互动评测第一平台
查看: 4747|回复: 29

[4K电影] [4K蓝光电影] 火星救援 The Martian 2015 [2160P/MKV/48.1GB]

  [复制链接]

klpoij89

  • TA的每日心情
    开心
    2016-12-19 00:28
  • 签到天数: 65 天

    [LV.6]常住居民II




    [4K蓝光电影] 火星救援 The Martian 2015 [2160P/MKV/48.1GB]   [复制链接]
    4747 29
    打印 上一主题 下一主题
    2016-10-19 21:00:41
    [4K蓝光电影] 火星救援 The Martian 2015 [2160P/MKV/48.1GB]
    (自带原盘简体中文字幕)

    [4K蓝光电影] 火星救援 The Martian 2015 [2160P/MKV/48.1GB]

    [4K蓝光电影] 火星救援 The Martian 2015 [2160P/MKV/48.1GB]

    译  名:火星救援 / 火星任務(港) / 絕地救援(台)
    片  名:The Martian
    年  代:2015
    国  家:美国 / 英国
    类  别:剧情 / 科幻 / 冒险
    语  言:英语
    字        幕:英文/西班牙文/法文/丹麦文/芬兰文/挪威文/葡萄牙文/瑞典文/中文
    音        频:DTS 7.1
    视频尺寸:3840 x 1600
    文件大小:48.1 GiB
    上映日期:2015-11-25(中国) / 2015-10-2(美国)
    IMDb评分:8.2/10 from 224,920 users
    IMDb链接:http://www.imdb.com/title/tt3659388/
    片  长:141分钟
    导  演:雷德利·斯科特 Ridley Scott
    主  演:马特·达蒙 Matt Damon

    杰西卡·查斯坦 Jessica Chastain
    克里斯汀·韦格 Kristen Wiig
    杰夫·丹尼尔斯 Jeff Daniels
    迈克尔·佩纳 Michael Peña
    凯特·玛拉 Kate Mara
    肖恩·宾 Sean Bean
    塞巴斯蒂安·斯坦 Sebastian Stan
    唐纳德·格洛弗 Donald Glover
    切瓦特·埃加福特 Chiwetel Ejiofor
    阿卡塞尔·亨涅 Aksel Hennie
    陈数 Shu Chen
    高雄 Eddy Ko
    本德里克特·王 Benedict Wong
    麦肯兹·戴维斯 Mackenzie Davis
    娜奥米·斯科特 Naomi Scott
    丽丽·博尔丹 Lili Bordán
    布莱恩·卡斯佩 Brian Caspe

    简介
    载人航天宇宙飞船阿瑞斯3号成功抵达火星,谁知一场破坏力极其巨大的风暴向宇航员们袭来,阿瑞斯3号被迫中断任务,紧急返航。撤离途中,宇航员马克·沃伦斯(马特·达蒙 Matt Damon 饰)被飞船上吹落的零件击中,由于生还希望渺茫,队友们只得匆匆返航,并向世人宣告他已牺牲的事实。出乎意料的是,马克以极低的概率活了下来。他堕入驻火星的航天基地疗伤。下一次火星任务要等到四年后,而基地内的补寄仅够他维持31天。短暂的绝望后,马克决定利用有限的食物,在这颗空无一人的星球上种植作物,寻找一线生机。与此同时,地球方面也很快发现马克生还的事实,他们想尽办法部署营救计划。孤军奋战的马克,能否等到救援队伍的到来?

    General # 1
    Unique ID : 177436215175132658736981330957490663590 (0x857CF9D527190EAE970179634B1330A6)
    Complete name : The Martian (2015) 2160p Ultra HD Blu-ray DTS-HD MA 7.1 x264-TrollUHD.mkv
    Format : Matroska
    Format version : Version 4 / Version 2
    File size : 48.1 GiB
    Duration : 2h 21mn
    Overall bit rate : 48.7 Mbps
    Encoded date : UTC 2016-03-07 08:47:12
    Writing application : mkvmerge v8.3.0 ('Over the Horizon') 64bit
    Writing library : libebml v1.3.1 + libmatroska v1.4.2

    Video # 1
    ID : 1
    Format : AVC
    Format/Info : Advanced Video Codec
    Format profile : High@L5.1
    Format settings, CABAC : Yes
    Format settings, ReFrames : 5 frames
    Codec ID : V_MPEG4/ISO/AVC
    Duration : 2h 21mn
    Bit rate : 43.6 Mbps
    Width : 3840 pixels
    Height : 1600 pixels
    Display aspect ratio : 2.40:1
    Frame rate mode : Constant
    Frame rate : 23.976 fps (24000/1001)fps
    Color space : YUV
    Chroma subsampling : 4:2:0
    Bit depth : 8 bits
    Scan type : Progressive
    Bits/(Pixel Frame) : 0.296
    Stream size : 43.1 GiB (90%)
    Writing library : x264 core 148 r2638 7599210
    Encoding settings : cabac=1 / ref=5 / deblock=1:-1:-1 / analyse=0x3:0x133 / me=umh / subme=10 / psy=1 /  psy_rd=1.00:0.15 / mixed_ref=1 / me_range=48 / chroma_me=1 / trellis=2 / 8x8dct=1 / cqm=0 /  deadzone=21,11 / fast_pskip=1 / chroma_qp_offset=-3 / threads=1
    Default : Yes
    Forced : No

    Audio # 1
    ID : 2
    Format : DTS
    Format/Info : Digital Theater Systems
    Format : MA / Core
    Mode : 16
    Format settings, Endianness : Big
    Codec ID : A_DTS
    Duration : 2h 21mn
    Bit rate mode : Variable / Constant
    Bit rate : 4997 Kbps / 1509 Kbps
    Channel(s) : 8 channels / 6 channels
    Channel positions : Front: L C R, Side: L R, Back: L R, LFE / Front: L C R, Side: L R, LFE
    Sampling rate : 48.0 KHz
    frame rate : 93.750 fps (512 spf)
    Bit depth : 24 bits
    Compression mode : Lossless / Lossy
    Stream size : 4.94 GiB (10%)
    Language : English
    Default : Yes
    Forced : No

    Text # 1
    ID : 3
    Format : PGS
    Muxing mode : zlib
    Codec ID : S_HDMV/PGS
    Codec ID/Info : Picture based subtitle format used on BDs/HD-DVDs
    Duration : 2h 15mn
    Bit rate : 14.1 Kbps
    Count of elements : 4290
    Stream size : 13.7 MiB (0%)
    Language : English
    Default : No
    Forced : No

    Text # 2
    ID : 4
    Format : PGS
    Muxing mode : zlib
    Codec ID : S_HDMV/PGS
    Codec ID/Info : Picture based subtitle format used on BDs/HD-DVDs
    Duration : 2h 20mn
    Bit rate : 10.5 Kbps
    Count of elements : 3322
    Stream size : 10.5 MiB (0%)
    Language : Spanish
    Default : No
    Forced : No

    Text # 3
    ID : 5
    Format : PGS
    Muxing mode : zlib
    Codec ID : S_HDMV/PGS
    Codec ID/Info : Picture based subtitle format used on BDs/HD-DVDs
    Duration : 2h 20mn
    Bit rate : 11.1 Kbps
    Count of elements : 3462
    Stream size : 11.1 MiB (0%)
    Language : French
    Default : No
    Forced : No

    Text # 4
    ID : 6
    Format : PGS
    Muxing mode : zlib
    Codec ID : S_HDMV/PGS
    Codec ID/Info : Picture based subtitle format used on BDs/HD-DVDs
    Duration : 2h 20mn
    Bit rate : 10.2 Kbps
    Count of elements : 3378
    Stream size : 10.2 MiB (0%)
    Language : Spanish
    Default : No
    Forced : No

    Text # 5
    ID : 7
    Format : PGS
    Muxing mode : zlib
    Codec ID : S_HDMV/PGS
    Codec ID/Info : Picture based subtitle format used on BDs/HD-DVDs
    Duration : 2h 19mn
    Bit rate : 9211 bps
    Count of elements : 2734
    Stream size : 9.18 MiB (0%)
    Language : Danish
    Default : No
    Forced : No

    Text # 6
    ID : 8
    Format : PGS
    Muxing mode : zlib
    Codec ID : S_HDMV/PGS
    Codec ID/Info : Picture based subtitle format used on BDs/HD-DVDs
    Duration : 2h 20mn
    Bit rate : 9029 bps
    Count of elements : 3448
    Stream size : 9.06 MiB (0%)
    Language : Finnish
    Default : No
    Forced : No

    Text # 7
    ID : 9
    Format : PGS
    Muxing mode : zlib
    Codec ID : S_HDMV/PGS
    Codec ID/Info : Picture based subtitle format used on BDs/HD-DVDs
    Duration : 2h 20mn
    Bit rate : 10.6 Kbps
    Count of elements : 3418
    Stream size : 10.6 MiB (0%)
    Language : Norwegian
    Default : No
    Forced : No

    Text # 8
    ID : 10
    Format : PGS
    Muxing mode : zlib
    Codec ID : S_HDMV/PGS
    Codec ID/Info : Picture based subtitle format used on BDs/HD-DVDs
    Duration : 2h 20mn
    Bit rate : 9501 bps
    Count of elements : 3230
    Stream size : 9.53 MiB (0%)
    Language : Portuguese
    Default : No
    Forced : No

    Text # 9
    ID : 11
    Format : PGS
    Muxing mode : zlib
    Codec ID : S_HDMV/PGS
    Codec ID/Info : Picture based subtitle format used on BDs/HD-DVDs
    Duration : 2h 19mn
    Bit rate : 10.4 Kbps
    Count of elements : 3386
    Stream size : 10.3 MiB (0%)
    Language : Swedish
    Default : No
    Forced : No

    Text # 10
    ID : 12
    Format : PGS
    Muxing mode : zlib
    Codec ID : S_HDMV/PGS
    Codec ID/Info : Picture based subtitle format used on BDs/HD-DVDs
    Duration : 2h 20mn
    Bit rate : 13.8 Kbps
    Count of elements : 3502
    Stream size : 13.9 MiB (0%)
    Language : Chinese
    Default : No
    Forced : No

    Text # 11
    ID : 13
    Format : PGS
    Muxing mode : zlib
    Codec ID : S_HDMV/PGS
    Codec ID/Info : Picture based subtitle format used on BDs/HD-DVDs
    Duration : 47s 715ms
    Bit rate : 6662 bps
    Count of elements : 24
    Stream size : 38.8 KiB (0%)
    Language : English
    Default : No
    Forced : No

    [4K蓝光电影] 火星救援 The Martian 2015 [2160P/MKV/48.1GB]

    [4K蓝光电影] 火星救援 The Martian 2015 [2160P/MKV/48.1GB]

    [4K蓝光电影] 火星救援 The Martian 2015 [2160P/MKV/48.1GB]

    [4K蓝光电影] 火星救援 The Martian 2015 [2160P/MKV/48.1GB]

    [4K蓝光电影] 火星救援 The Martian 2015 [2160P/MKV/48.1GB]

    [4K蓝光电影] 火星救援 The Martian 2015 [2160P/MKV/48.1GB]

    [4K蓝光电影] 火星救援 The Martian 2015 [2160P/MKV/48.1GB]

    [4K蓝光电影] 火星救援 The Martian 2015 [2160P/MKV/48.1GB]

    [4K蓝光电影] 火星救援 The Martian 2015 [2160P/MKV/48.1GB]

    [4K蓝光电影] 火星救援 The Martian 2015 [2160P/MKV/48.1GB]

    [4K蓝光电影] 火星救援 The Martian 2015 [2160P/MKV/48.1GB]

    [4K蓝光电影] 火星救援 The Martian 2015 [2160P/MKV/48.1GB]

    [4K蓝光电影] 火星救援 The Martian 2015 [2160P/MKV/48.1GB]

    [4K蓝光电影] 火星救援 The Martian 2015 [2160P/MKV/48.1GB]

    [4K蓝光电影] 火星救援 The Martian 2015 [2160P/MKV/48.1GB]

    [4K蓝光电影] 火星救援 The Martian 2015 [2160P/MKV/48.1GB]

    [4K蓝光电影] 火星救援 The Martian 2015 [2160P/MKV/48.1GB]

    [4K蓝光电影] 火星救援 The Martian 2015 [2160P/MKV/48.1GB]

    [4K蓝光电影] 火星救援 The Martian 2015 [2160P/MKV/48.1GB]

    [4K蓝光电影] 火星救援 The Martian 2015 [2160P/MKV/48.1GB]

    [4K蓝光电影] 火星救援 The Martian 2015 [2160P/MKV/48.1GB]

    [4K蓝光电影] 火星救援 The Martian 2015 [2160P/MKV/48.1GB]

    [4K蓝光电影] 火星救援 The Martian 2015 [2160P/MKV/48.1GB]

    [4K蓝光电影] 火星救援 The Martian 2015 [2160P/MKV/48.1GB]

    [4K蓝光电影] 火星救援 The Martian 2015 [2160P/MKV/48.1GB]

    [4K蓝光电影] 火星救援 The Martian 2015 [2160P/MKV/48.1GB]

    [4K蓝光电影] 火星救援 The Martian 2015 [2160P/MKV/48.1GB]

    [4K蓝光电影] 火星救援 The Martian 2015 [2160P/MKV/48.1GB]

    [4K蓝光电影] 火星救援 The Martian 2015 [2160P/MKV/48.1GB]

    [4K蓝光电影] 火星救援 The Martian 2015 [2160P/MKV/48.1GB]

    [4K蓝光电影] 火星救援 The Martian 2015 [2160P/MKV/48.1GB]

    [4K蓝光电影] 火星救援 The Martian 2015 [2160P/MKV/48.1GB]

    [4K蓝光电影] 火星救援 The Martian 2015 [2160P/MKV/48.1GB]

    [4K蓝光电影] 火星救援 The Martian 2015 [2160P/MKV/48.1GB]

    [4K蓝光电影] 火星救援 The Martian 2015 [2160P/MKV/48.1GB]

    [4K蓝光电影] 火星救援 The Martian 2015 [2160P/MKV/48.1GB]

    [4K蓝光电影] 火星救援 The Martian 2015 [2160P/MKV/48.1GB]

    [4K蓝光电影] 火星救援 The Martian 2015 [2160P/MKV/48.1GB]

    [4K蓝光电影] 火星救援 The Martian 2015 [2160P/MKV/48.1GB]

    [4K蓝光电影] 火星救援 The Martian 2015 [2160P/MKV/48.1GB]

    [4K蓝光电影] 火星救援 The Martian 2015 [2160P/MKV/48.1GB]

    [4K蓝光电影] 火星救援 The Martian 2015 [2160P/MKV/48.1GB]

    [4K蓝光电影] 火星救援 The Martian 2015 [2160P/MKV/48.1GB]

    [4K蓝光电影] 火星救援 The Martian 2015 [2160P/MKV/48.1GB]

    [4K蓝光电影] 火星救援 The Martian 2015 [2160P/MKV/48.1GB]

    [4K蓝光电影] 火星救援 The Martian 2015 [2160P/MKV/48.1GB]

    建议使用极速迅雷来高速下载!最高峰值13MB

    BT种子文件下载

    游客,如果您要查看本帖隐藏内容请回复

    +15

    最近谁赞过




    2017-1-20 18:16:18
    6666666666666666666666666666666666666666666666666666666666666666666666




    2017-3-9 21:44:20
    [4K蓝光电影] 火星救援 The Martian 2015 [2160P/MKV/48.1GB]



    2016-10-20 14:29:59
    ddddddddddddddddddddddddddd



    2016-10-23 19:49:13
    谢谢楼主



    2016-10-24 16:46:28
    看看,谢谢。



    2016-10-25 14:12:47
    6666666666666666



    2016-10-28 15:46:25
    看过普通版的,不知道4K版的有什么其他的体验没



    2016-10-28 19:21:00
    支持支持



    2016-10-28 19:21:11
    下载了体验下



    2016-11-5 11:18:59
    66666666666666666666



    2016-11-12 22:54:56
    议使用极速迅雷来高速下载!最高峰值13MB
    123下一页
    本版积分规则
    您需要登录后才可以回帖 登录 | 注册

    关闭

    站长推荐上一条 /2 下一条

    返回顶部 返回列表